Walking with Dinosaurs 3D*2013*[1080p.H-OU.AC3.BR.x264-LEON 345]

Magnet Download Torrent Download

Size : 3.92 GiB (4208433436 Bytes)

Wędrówki z dinozaurami 3D(OU) - Walking with Dinosaurs 3D *2013* [mini-HD.1080p.Half.Over-Under.DualAudio.AC3.Custom.BluRay.x264-LEON 345][Dubbing i Napisy PL]
================================================================================
http://www.imdb.com/title/tt1762399/


Kopia mini-HD 1080p = 3,92 GB

Produkcja: Australia, USA, Wielka Brytania
Gatunek: Animacja, Familijny
Premiera: 3 stycznia 2014 (Polska) 18 grudnia 2013 (świat)
Reżyseria: Barry Cook, Neil Nightingale
Scenariusz: John Collee
Zdjęcia: John Brooks
Muzyka: Paul Leonard-Morgan
Obsada: Charlie Rowe, Karl Urban, Angourie Rice

Kinowa wersja słynnego serialu BBC o prehistorycznych gadach, zrealizowana w cyfrowym 3D. Film, który sprawia wrażenie, jakby nakręcono go 70 milionów lat temu, pełen jest zapierających dech scen akcji, porywających przygód i niezwykłych krajobrazów, które na zawsze zniknęły z powierzchni Ziemi.

General

Format : Matroska
Format version : Version 2
File size : 3.92 GiB
Duration : 1h 27mn
Overall bit rate : 6 411 Kbps
Movie name : WalkingWithDinosaurs(2013)3D.BlurayRip by Leon 345
Encoded date : UTC 2014-04-29 11:40:35
Writing application : mkvmerge v5.7.0 ('The Whirlwind') built on Jul 8 2012 20:08:51
Writing library : libebml v1.2.3 + libmatroska v1.3.0

Video
ID : 1
Format : AVC
Format/Info : Advanced Video Codec
Format profile : [email protected]/* */
Format settings, CABAC : Yes
Format settings, ReFrames : 2 frames
Codec ID : V_MPEG4/ISO/AVC
Duration : 1h 27mn
Bit rate : 5 400 Kbps
Width : 1 920 pixels
Height : 1 080 pixels
Display aspect ratio : 16:9 (2.39:1)
Frame rate mode : Constant
Frame rate : 23.976 fps
Color space : YUV
Chroma subsampling : 4:2:0
Bit depth : 8 bits
Scan type : Progressive
Bits/(Pixel*Frame) : 0.108
Stream size : 3.29 GiB (84%)
Title : Rip by Leon 345
Writing library : x264 core
Default : Yes
Forced : No
Color primaries : BT.709
Transfer characteristics : BT.709
Matrix coefficients : BT.709

Audio #1
ID : 2
Format : AC-3
Format/Info : Audio Coding 3
Mode extension : CM (complete main)
Format settings, Endianness : Big
Codec ID : A_AC3
Duration : 1h 27mn
Bit rate mode : Constant
Bit rate : 448 Kbps
Channel(s) : 6 channels
Channel positions : Front: L C R, Side: L R, LFE
Sampling rate : 48.0 KHz
Bit depth : 16 bits
Compression mode : Lossy
Stream size : 280 MiB (7%)
Title : AC3 5.1 dubbing PL Custom
Language : Polish
Default : Yes
Forced : Yes

Audio #2
ID : 3
Format : AC-3
Format/Info : Audio Coding 3
Mode extension : CM (complete main)
Format settings, Endianness : Big
Codec ID : A_AC3
Duration : 1h 27mn
Bit rate mode : Constant
Bit rate : 448 Kbps
Channel(s) : 6 channels
Channel positions : Front: L C R, Side: L R, LFE
Sampling rate : 48.0 KHz
Bit depth : 16 bits
Compression mode : Lossy
Stream size : 280 MiB (7%)
Title : AC3 5.1 English
Language : English
Default : No
Forced : No

Text #1
ID : 4
Format : UTF-8
Codec ID : S_TEXT/UTF8
Codec ID/Info : UTF-8 Plain Text
Title : napisy 2D
Language : Polish
Default : No
Forced : No

Text #2
ID : 5
Format : PGS
Muxing mode : zlib
Codec ID : S_HDMV/PGS
Codec ID/Info : The same subtitle format used on BDs/HD-DVDs
Title : napisy 3D
Language : Polish
Default : No
Forced : No

Text #3
ID : 6
Format : UTF-8
Codec ID : S_TEXT/UTF8
Codec ID/Info : UTF-8 Plain Text
Title : napisy 2D
Language : English
Default : No
Forced : No

Menu
00:00:00.000 : en:(01)00:00:00:000
00:01:52.528 : en:(02)00:01:52:528
00:05:28.951 : en:(03)00:05:28:951
00:07:35.745 : en:(04)00:07:35:745
00:12:14.106 : en:(05)00:12:14:106
00:14:54.975 : en:(06)00:14:54:975
00:17:11.945 : en:(07)00:17:11:945
00:18:38.365 : en:(08)00:18:38:365
00:21:55.145 : en:(09)00:21:55:145
00:24:38.518 : en:(10)00:24:38:518
00:27:15.214 : en:(11)00:27:15:214
00:28:35.962 : en:(12)00:28:35:962
00:30:48.511 : en:(13)00:30:48:511
00:33:06.401 : en:(14)00:33:06:401
00:37:45.762 : en:(15)00:37:45:762
00:42:10.318 : en:(16)00:42:10:318
00:44:07.853 : en:(17)00:44:07:853
00:47:43.860 : en:(18)00:47:43:860
00:51:07.230 : en:(19)00:51:07:230
00:52:58.800 : en:(20)00:52:58:800
00:56:57.038 : en:(21)00:56:57:038
00:58:28.755 : en:(22)00:58:28:755
01:02:56.731 : en:(23)01:02:56:731
01:06:53.384 : en:(24)01:06:53:384
01:10:48.077 : en:(25)01:10:48:077
01:17:02.242 : en:(26)01:17:02:242
01:18:48.220 : en:(27)01:18:48:220
01:20:23.568 : en:(28)01:20:23:568

Source [thx]:
V- BD3D-Remux
Lektor PL - Leon 345 Custom [Bluray DTS 5.1 ENG + AC3 2.0 PL mein Freund]