WALT DISNEYS-BOLT [email protected]/* */ RG H.264 AAC MP4 RIP[ENG


Size : 899.95 MiB (943670476 Bytes)

COVERS INCLUDED
For super-dog Bolt (John Travolta), every day is filled with adventure, danger and intrigue at least until the cameras stop rolling. When the star of a hit TV show is accidentally shipped from his Hollywood soundstage to New York City, he begins his biggest adventure yet a cross-country journey through the real world. Armed only with the delusions that all his amazing feats and powers are real, and with the help of two unlikely traveling companions: a jaded, abandoned housecat named Mittens (Susie Essman) and a TV-obsessed hamster in a plastic ball named Rhino, Bolt discovers he doesnt need superpowers to be a hero.

General
Complete name : C:UsersjokerDocumentsWALT DISNEYS-BOLT [email protected]/* */ RG H.264 AAC MP4 RIP[ENG]bh264.mp4
Format : MPEG-4
Format profile : Base Media / Version 2
Codec ID : mp42
File size : 898 MiB
Duration : 1h 32mn
Overall bit rate : 1 359 Kbps
Encoded date : UTC 2009-06-23 12:59:15
Tagged date : UTC 2009-06-23 18:31:16
Writing application : HandBrake 0.9.3 2008112300

Video
Format : AVC
Format/Info : Advanced Video Codec
Format profile : [email protected]/* */
Format settings, CABAC : Yes
Format settings, ReFrames : 3 frames
Codec ID : avc1
Codec ID/Info : Advanced Video Coding
Duration : 1h 32mn
Bit rate mode : Variable
Bit rate : 1 196 Kbps
Width : 720 pixels
Height : 572 pixels
Display aspect ratio : 16/9
Frame rate mode : Variable
Frame rate : 25.000 fps
Minimum frame rate : 12.500 fps
Maximum frame rate : 89.054 fps
Resolution : 24 bits
Colorimetry : 4:2:0
Scan type : Progressive
Bits/(Pixel*Frame) : 0.116
Stream size : 790 MiB (88%)
Writing library : x264 core 65


Audio
Format : AAC
Format/Info : Advanced Audio Codec
Format version : Version 4
Format profile : LC
Format settings, SBR : No
Codec ID : 40
Duration : 1h 32mn
Bit rate mode : Variable
Bit rate : 160 Kbps
Maximum bit rate : 222 Kbps
Channel(s) : 2 channels
Channel positions : L R
Sampling rate : 48.0 KHz
Resolution : 16 bits
Stream size : 105 MiB (12%)
Language : English
Encoded date : UTC 2009-06-23 12:59:15
Tagged date : UTC 2009-06-23 18:31:07