War.Dogs.2016.1080p.BluRay.x265.10bit-z97


Size : 899.84 MiB (943546535 Bytes)














RELEASE NOTES












▄▄▄▄▄▄▄▄▄▄▄▄▄▄▄▄▄▄▄▄▄▄▄▄▄▄▄▄▄▄▄▄▄▄▄▄▄▄▄▄▄▄▄▄▄▄▄▄▄▄▄▄▄▄▄▄▄▄▄▄▄▄▄▄▄









War Dogs 2016 1080p x265 10bit







iMDB url










: imdb.com/title/tt2005151/
iMDB Rating









: 7.2/10 from 37,314 votes
Release











: 2016 - August 19th
Genre












: Comedy, Crime, Drama
Source











: Retail Blu-ray
Subs












: ENG/DEN/SWE/NOR/FIN













PLOT SUMMARY










▄▄▄▄▄▄▄▄▄▄▄▄▄▄▄▄▄▄▄▄▄▄▄▄▄▄▄▄▄▄▄▄▄▄▄▄▄▄▄▄▄▄▄▄▄▄▄▄▄▄▄▄▄▄▄▄▄▄▄▄▄▄▄▄▄▄

Based on the true story of two young men, David Packouz and
Efraim Diveroli, who won a $300 million contract from the
Pentagon to arm America's allies in Afghanistan.

Director : Todd Phillips
Stars

: Jonah Hill, Miles Teller, Steve Lantz












RELEASE INFORMATION








▄▄▄▄▄▄▄▄▄▄▄▄▄▄▄▄▄▄▄▄▄▄▄▄▄▄▄▄▄▄▄▄▄▄▄▄▄▄▄▄▄▄▄▄▄▄▄▄▄▄▄▄▄▄▄▄▄▄▄▄▄▄▄▄▄▄

Video
ID













: 1
Format











: HEVC
Format profile







: Main [email protected]/* [email protected]
Duration










: 1h 54mn
Bit rate










: 696 Kbps
Width












: 1 920 pixels
Height











: 800 pixels
Display aspect ratio




: 2.40:1
Frame rate mode







: Constant
Frame rate









: 23.976 fps
Color space









: YUV
Chroma subsampling





: 4:2:0
Bit depth










: 10 bits
Stream size









: 568 MiB (63%)
Writing library







: x265 2.1+47 [64 bit] 10bit
Language










: English
Default











: Yes

Audio
ID













: 2
Format











: AC-3
Format settings, Endianness

: Big
Duration










: 1h 54mn
Bit rate mode








: Constant
Bit rate










: 384 Kbps
Channel(s)









: 6 channels
Channel positions






: Front: L C R, Side: L R, LFE
Sampling rate








: 48.0 KHz
Compression mode






: Lossy
Stream size









: 314 MiB (35%)
Language










: English
Default











: Yes