WarCarft.2016.Leaked..Trailer.with.eng.subs


Size : 12.17 MiB (12757706 Bytes)

WarCraft.2016.Leaked.Trailer.HC.Subs

Grabbed it from Romanian server,the video is recorded off computer monitor has water marks all over it, despite low quality it’s drool-worthy, added eng subs to it.
Don't know if its legit,It doesn't hurt to take a look
PS: armour snaps frm comic-con and the armour in the vid are same so there is some sense to it...
This is what u get till official trailer release in Nov

Format










: MPEG-4
Format profile






: Base Media / Version 2
Codec ID









: mp42
File size








: 12.2 MiB
Duration









: 40s 123ms
Overall bit rate mode


: Variable
Overall bit rate





: 2 543 Kbps

Video
ID












: 1
Format










: AVC
Format/Info







: Advanced Video Codec
Format profile






: [email protected]/* */
Format settings, CABAC


: Yes
Format settings, ReFrames
: 1 frame
Codec ID









: avc1
Codec ID/Info






: Advanced Video Coding
Duration









: 40s 120ms
Bit rate









: 2 349 Kbps
Maximum bit rate





: 3 592 Kbps
Width










: 1 280 pixels
Height










: 720 pixels
Display aspect ratio



: 16:9
Frame rate mode





: Constant
Frame rate








: 25.000 fps
Color space







: YUV
Chroma subsampling




: 4:2:0
Bit depth








: 8 bits
Scan type








: Progressive
Bits/(Pixel*Frame)




: 0.102
Stream size







: 11.2 MiB (92%)

Audio
ID












: 2
Format










: AAC
Format/Info







: Advanced Audio Codec
Format profile






: LC
Codec ID









: 40
Duration









: 40s 123ms
Bit rate mode






: Variable
Bit rate









: 192 Kbps
Maximum bit rate





: 201 Kbps
Channel(s)








: 2 channels
Channel positions




: Front: L R
Sampling rate






: 44.1 KHz
Compression mode





: Lossy
Stream size







: 941 KiB (8%)

Text
ID












: 3
Format










: UTF-8
Codec ID









: S_TEXT/UTF8
Codec ID/Info






: UTF-8 Plain Text
Language









: English
Default









: Yes
Forced










: No

Check Screens bfore download don't bitch about quality.If u can do better than this Be my guest n upload.

Screens