Westworld S01E03 The Stray 1080p HDTV HEVC DD5.1 x265

Magnet Download Torrent Download

Size : 950.35 MiB (996514284 Bytes)

Source:Westworld S01E03 1080p HDTV x264-BATV (4.31 GB)


Complete name: Westworld.S01E03.The.Stray.1080p.HDTV.HEVC.DD5.1.x265.mkv
Format
















: Matroska
Format version












: Version 4 / Version 2
File size















: 950 MiB
Duration















: 58mn 32s
Overall bit rate











: 2 270 Kbps
Writing application










: Lavf57.25.100

Video

ID


















: 1
Format
















: V_MPEGH/ISO/HEVC
Codec ID















: V_MPEGH/ISO/HEVC
Duration















: 58mn 32s
Bit rate















: 1 840 Kbps
Width

















: 1 920 pixels
Height
















: 1 074 pixels
Display aspect ratio









: 16:9
Frame rate














: 25.000 fps
Bits/(Pixel*Frame)










: 0.036
Stream size














: 771 MiB (81%)
Writing library












: Lavc57.48.101 libx265
Default
















: Yes
Forced
















: No
DURATION















: 00:58:32.331000000

Audio

ID


















: 2
Format
















: AC-3
Format/Info














: Audio Coding 3
Mode extension












: CM (complete main)
Format settings, Endianness






: Big
Codec ID















: A_AC3
Duration















: 58mn 32s
Bit rate mode













: Constant
Bit rate















: 384 Kbps
Channel(s)














: 6 channels
Channel positions











: Front: L C R, Side: L R, LFE
Sampling rate













: 48.0 KHz
Bit depth















: 16 bits
Compression mode











: Lossy
Stream size














: 161 MiB (17%)
Writing library












: Lavc57.24.102 ac3
Default
















: Yes
Forced
















: No
DURATION















: 00:58:32.351000000