Westworld S01E09 1080p HBO WEBRip HEVC DD+5.1 x265


Size : 1.09 GiB (1172277103 Bytes)

Source:Westworld S01E09 The Well-Tempered Clavier 1080p HBO WEBRip DD5.1 H264-monkee(1.62 GB)


Complete name:
Westworld.S01E08.The.Well.Tempered.Clavier.1080p.HBO.WEBRip.HEVC.DD5.1.x265.mkv
Format
















: Matroska
Format version












: Version 4 / Version 2
File size















: 1.09 GiB
Duration















: 58mn 32s
Overall bit rate











: 2 670 Kbps
Encoded date













: UTC 2016-11-28 08:03:44
Writing library












: libebml v1.3.4 + libmatroska v1.4.5

Video

ID


















: 1
Format
















: V_MPEGH/ISO/HEVC
Duration















: 58mn 32s
Bit rate















: 2 233 Kbps
Width

















: 1 920 pixels
Height
















: 1 080 pixels
Display aspect ratio









: 16:9
Frame rate














: 23.976 fps
Bits/(Pixel*Frame)










: 0.045
Stream size














: 935 MiB (84%)
Language















: English
Default
















: Yes
Forced
















: No
DURATION















: 00:58:32.468000000

Audio

ID


















: 2
Format
















: E-AC-3
Format/Info














: Audio Coding 3
Format settings, Endianness






: Big
Codec ID















: A_EAC3
Duration















: 58mn 32s
Bit rate mode













: Constant
Bit rate















: 384 Kbps
Channel(s)














: 6 channels
Channel positions











: Front: L C R, Side: L R, LFE
Sampling rate













: 48.0 KHz
Compression mode











: Lossy
Stream size














: 161 MiB (14%)
Title

















: E-AC-3 5.1
Language















: English
Default
















: Yes
Forced
















: No

Text

ID


















: 3
Codec ID















: S_TEXT/ASS
Title

















: English