Willow Smith-Whip My Hair.[2010 1080].mp4


Size : 168.63 MiB (176816514 Bytes)















Whip My Hair













Single by Willow

"Whip My Hair" is a song by American recording artist Willow Smith. Smith wrote the lyrics while rookie producer Jukebox handled the music. The song serves as her debut single from her yet-to-be-titled debut release. While attending events, Smith received media attention for her extravagant outfits compared to Rihanna, whom she later credited as a musical influence. Coincidentally leaked on the same day as Rihanna's "Only Girl (In the World)", the song set media outlets abuzz, being covered by Time, Billboard, and CNN the day of its release.

Chart (2010 This Week)







US Billboard Hot 100
#11.






----------------------------




Willow Smith-Whip My Hair.[2010].mp4




Format : MPEG-4



Format profile : Base Media / Version 2



Codec ID : mp42



File size : 169 MiB



Duration : 3mn 53s



Overall bit rate : 6 047 Kbps



Encoded date : UTC 2010-10-17 16:45:32



Tagged date : UTC 2010-10-17 16:45:32



gsst : 0



gstd : 233981



gssd : B4A7D0F81HH1287503385344831



gshh : v17.lscache4.c.youtube.com

Video #1



Format : AVC



Format/Info : Advanced Video Codec



Format profile : [email protected]/* */



Format settings, CABAC : Yes



Format settings, ReFrames : 1 frame



Codec ID : avc1



Codec ID/Info : Advanced Video Coding



Duration : 3mn 53s



Bit rate mode : Variable



Bit rate : 5 914 Kbps



Maximum bit rate : 10.9 Mbps



Width : 1 920 pixels



Height : 1 080 pixels



Display aspect ratio : 16/9



Frame rate mode : Variable



Frame rate : 23.976 fps



Minimum frame rate : 23.810 fps



Maximum frame rate : 24.390 fps



Resolution : 24 bits



Colorimetry : 4:2:0



Scan type : Progressive



Bits/(Pixel*Frame) : 0.119



Stream size : 165 MiB (98%)



Encoded date : UTC 1970-01-01 00:00:00



Tagged date : UTC 2010-10-17 16:45:37

Audio #2



Format : AAC



Format/Info : Advanced Audio Codec



Format version : Version 4



Format profile : LC



Format settings, SBR : No



Codec ID : 40



Duration : 3mn 53s



Bit rate mode : Variable



Bit rate : 126 Kbps



Maximum bit rate : 153 Kbps



Channel(s) : 2 channels



Channel positions : L R



Sampling rate : 44.1 KHz



Resolution : 16 bits



Stream size : 3.52 MiB (2%)



Title : (C) 2007 Google Inc. v08.13.2007.



Encoded date : UTC 2010-10-17 16:45:35



Tagged date : UTC 2010-10-17 16:45:37