Wisin ft.Ricky Martin – Que Se Sienta El Deseo (2015.Latin)


Size : 125.28 MiB (131370690 Bytes)

WISIN ft.RICKY MARTIN - QUE SE SIENTA EL DESEO

http://gifyu.com/images/wisin-01.png
http://gifyu.com/images/wisin-02.png
http://gifyu.com/images/wisin-03.png


MEDIA INFO
General
Wisin ft. Ricky Martin - Que Se Sienta El Deseo
Format
















: MPEG-4
Format profile












: Base Media
Codec ID















: isom
File size















: 125 MiB
Duration















: 4mn 13s
Overall bit rate











: 4 144 Kbps
MusicVid name













: Que Se Sienta El Deseo
Performer















: Wisin ft. Ricky Martin
Genre

















: Reggaeton
ContentType














: Music Video
Recorded date













: 2015
Make

















: MeRaDil
Release date













: Puerto Rico/USA - october 2 - 2015

Video
ID


















: 1
Format
















: AVC
Format/Info














: Advanced Video Codec
Format profile












: [email protected]/* */
Format settings, CABAC








: Yes
Format settings, ReFrames







: 2 frames
Codec ID















: avc1
Codec ID/Info













: Advanced Video Coding
Duration















: 4mn 13s
Bit rate















: 3 882 Kbps
Width

















: 1 920 pixels
Height
















: 1 080 pixels
Display aspect ratio









: 16:9
Frame rate mode












: Variable
Frame rate














: 23.976 fps
Minimum frame rate










: 23.974 fps
Maximum frame rate










: 23.981 fps
Color space














: YUV
Chroma subsampling










: 4:2:0
Bit depth















: 8 bits
Scan type















: Progressive
Bits/(Pixel*Frame)










: 0.078
Stream size














: 117 MiB (94%)

Audio
ID


















: 2
Format
















: AAC
Format/Info














: Advanced Audio Codec
Format profile












: LC
Codec ID















: 40
Duration















: 4mn 13s
Bit rate mode













: Constant
Bit rate















: 256 Kbps
Channel(s)














: 2 channels
Channel positions











: Front: L R
Sampling rate













: 44.1 KHz
Compression mode











: Lossy
Stream size














: 7.74 MiB (6%)

Wisin * Ricky Martin * Reggaeton/Latin * Promo