Wiz Khalifa Ft. Charlie Puth – See You Again [MV] 1080p [Sbyky]


Size : 57.22 MiB (59994442 Bytes)

General
Complete name













: Wiz Khalifa Ft. Charlie Puth - See You Again [Music Video] 1080p [Sbyky].mp4
Format
















: MPEG-4
Format profile












: Base Media
Codec ID















: isom
File size















: 57.2 MiB
Duration















: 3mn 57s
Overall bit rate mode









: Variable
Overall bit rate











: 2 022 Kbps
Encoded date













: UTC 2015-04-13 05:57:51
Tagged date














: UTC 2015-04-13 05:57:51

Video
ID


















: 1
Format
















: AVC
Format/Info














: Advanced Video Codec
Format profile












: [email protected]/* */
Format settings, CABAC








: Yes
Format settings, ReFrames







: 3 frames
Codec ID















: avc1
Codec ID/Info













: Advanced Video Coding
Duration















: 3mn 57s
Bit rate















: 1 892 Kbps
Width

















: 1 920 pixels
Height
















: 1 080 pixels
Display aspect ratio









: 16:9
Frame rate mode












: Variable
Frame rate














: 23.976 fps
Minimum frame rate










: 23.974 fps
Maximum frame rate










: 23.981 fps
Color space














: YUV
Chroma subsampling










: 4:2:0
Bit depth















: 8 bits
Scan type















: Progressive
Bits/(Pixel*Frame)










: 0.038
Stream size














: 53.5 MiB (94%)
Encoded date













: UTC 2015-04-13 05:57:51
Tagged date














: UTC 2015-04-13 05:57:51

Audio
ID


















: 2
Format
















: AAC
Format/Info














: Advanced Audio Codec
Format profile












: LC
Codec ID















: 40
Duration















: 3mn 57s
Bit rate mode













: Variable
Bit rate















: 126 Kbps
Channel(s)














: 2 channels
Channel positions











: Front: L R
Sampling rate













: 44.1 KHz
Compression mode











: Lossy
Stream size














: 3.55 MiB (6%)
Encoded date













: UTC 2015-04-13 05:52:05
Tagged date














: UTC 2015-04-13 05:52:05

Shared By Sbyky
[IMG]http://yuq.me/users/18/139/0aq32UMZvX.gif[/IMG]
[IMG]http://yuq.me/users/18/139/bQg62viaEG.gif[/IMG]