YG Ft. Lil Wayne, Rich Homie Quan, Meek Mill & Nicki Minaj –


Size : 63.53 MiB (66615835 Bytes)


General
Complete name













: YG Ft. Lil Wayne, Rich Homie Quan, Meek Mill & Nicki Minaj - My Nigga [Remix] [Explicit] 1080p [Sbyky].MP4
Format
















: MPEG-4
Format profile












: Base Media
Codec ID















: isom
File size















: 63.5 MiB
Duration















: 4mn 13s
Overall bit rate mode









: Variable
Overall bit rate











: 2 101 Kbps
Encoded date













: UTC 2014-02-24 18:32:32
Tagged date














: UTC 2014-02-24 18:32:32

Video
ID


















: 1
Format
















: AVC
Format/Info














: Advanced Video Codec
Format profile












: [email protected]/* */
Format settings, CABAC








: Yes
Format settings, ReFrames







: 3 frames
Codec ID















: avc1
Codec ID/Info













: Advanced Video Coding
Duration















: 4mn 13s
Duration_LastFrame










: -41ms
Bit rate















: 1 973 Kbps
Width

















: 1 920 pixels
Height
















: 1 080 pixels
Display aspect ratio









: 16:9
Frame rate mode












: Constant
Frame rate














: 23.976 fps
Color space














: YUV
Chroma subsampling










: 4:2:0
Bit depth















: 8 bits
Scan type















: Progressive
Bits/(Pixel*Frame)










: 0.040
Stream size














: 59.6 MiB (94%)
Encoded date













: UTC 2014-02-24 18:32:32
Tagged date














: UTC 2014-02-24 18:32:32

Audio
ID


















: 2
Format
















: AAC
Format/Info














: Advanced Audio Codec
Format profile












: LC
Codec ID















: 40
Duration















: 4mn 13s
Bit rate mode













: Variable
Bit rate















: 126 Kbps
Channel(s)














: 2 channels
Channel positions











: Front: L R
Sampling rate













: 44.1 KHz
Compression mode











: Lossy
Stream size














: 3.80 MiB (6%)
Encoded date













: UTC 2014-02-24 18:31:36
Tagged date














: UTC 2014-02-24 18:31:36

Shared By Sbyky