Your Friend the Rat (2007) BDRip x264 Ukr sub


Size : 84.58 MiB (88688655 Bytes)

Director: Jim Capobianco
Stars: Patton Oswalt, Peter Sohn, Lou Romano

Remy and Emile plead the case for rats by illustrating the historical and scientific facts about the species and their interaction with humans.

Format
















: MPEG-4
Format profile












: Base Media
Codec ID















: isom
File size















: 84.6 MiB
Duration















: 11mn 17s
Overall bit rate mode









: Variable
Overall bit rate











: 1 048 Kbps
Movie name














: Your Friend the Rat*2007 /antusyrzhuk
Genre

















: Animation
Recorded date













: 2007
Comment
















: http://cinemasterpiece(dot)wordpress(dot)com/

Video
ID


















: 1
Format
















: AVC
Format/Info














: Advanced Video Codec
Format profile












: [email protected]/* */
Format settings, CABAC








: Yes
Format settings, ReFrames







: 10 frames
Codec ID















: avc1
Codec ID/Info













: Advanced Video Coding
Duration















: 11mn 16s
Bit rate















: 950 Kbps
Maximum bit rate











: 7 823 Kbps
Width

















: 800 pixels
Height
















: 450 pixels
Display aspect ratio









: 16:9
Frame rate mode












: Constant
Frame rate














: 23.976 fps
Color space














: YUV
Chroma subsampling










: 4:2:0
Bit depth















: 8 bits
Scan type















: Progressive
Bits/(Pixel*Frame)










: 0.110
Stream size














: 76.6 MiB (91%)

Audio
ID


















: 2
Format
















: AAC
Format/Info














: Advanced Audio Codec
Format profile












: LC
Codec ID















: 40
Duration















: 11mn 16s
Bit rate mode













: Variable
Bit rate















: 96.0 Kbps
Maximum bit rate











: 115 Kbps
Channel(s)














: 2 channels
Channel positions











: Front: L R
Sampling rate













: 48.0 KHz
Compression mode











: Lossy
Stream size














: 7.69 MiB (9%)
Language















: English


Text
ID


















: 3
Format
















: Timed Text
Codec ID















: tx3g
Duration















: 11mn 17s
Bit rate mode













: Variable
Bit rate















: 159 bps
Stream size














: 13.1 KiB (0%)
Language















: Ukrainian


Screenshots: http://postimg.org/image/czmj4qkyt/ http://postimg.org/image/pfj8yheat/ http://postimg.org/image/glschdrc5/

English subtitles http://subscene.com/subtitles/your-friend-the-rat/english/823303