Zayn – Pillowtalk (2016 Electronic)


Size : 90.26 MiB (94640808 Bytes)

ZAYN - PILLOWTALK

http://gifyu.com/images/zayn01.png
http://gifyu.com/images/zayn.png


General
Zayn - Pillowtalk
Format
















: MPEG-4
Format profile












: Base Media
Codec ID















: isom
File size















: 90.3 MiB
Duration















: 3mn 26s
Overall bit rate











: 3 663 Kbps
MusicVid name













: Pillow Talk
Performer















: Zayn
Genre

















: Electronic/RnB
ContentType














: Music Video
Recorded date













: 2016
Writing application










: MeRaDil
Cover

















: Yes
Releasetime














: UK - january 29 - 2016

Video
ID


















: 1
Format
















: AVC
Format/Info














: Advanced Video Codec
Format profile












: [email protected]/* */
Format settings, CABAC








: Yes
Format settings, ReFrames







: 2 frames
Codec ID















: avc1
Codec ID/Info













: Advanced Video Coding
Duration















: 3mn 26s
Bit rate















: 3 389 Kbps
Width

















: 1 920 pixels
Height
















: 1 080 pixels
Display aspect ratio









: 16:9
Frame rate mode












: Variable
Frame rate














: 23.976 fps
Minimum frame rate










: 23.974 fps
Maximum frame rate










: 23.981 fps
Color space














: YUV
Chroma subsampling










: 4:2:0
Bit depth















: 8 bits
Scan type















: Progressive
Bits/(Pixel*Frame)










: 0.068
Stream size














: 83.5 MiB (92%)

Audio
ID


















: 2
Format
















: AAC
Format/Info














: Advanced Audio Codec
Format profile












: LC
Codec ID















: 40
Duration















: 3mn 26s
Bit rate mode













: Constant
Bit rate















: 256 Kbps
Channel(s)














: 2 channels
Channel positions











: Front: L R
Sampling rate













: 44.1 KHz
Compression mode











: Lossy
Stream size














: 6.31 MiB (7%)